I need help to mount this CD image.

Status
This thread has been Locked and is not open to further replies. Please start a New Thread if you're having a similar issue. View our Welcome Guide to learn how to use this site.

childofthetao

Thread Starter
Joined
May 5, 2009
Messages
10
Hello, I have a CD image consisting of a cue, bin and several ape files.

I have:

"Airgrave (Japan) (Track 01) [SLPS-00559].bin"
"Airgrave (Japan) [SLPS-00559].cue"
"Airgrave (Japan) (Track 02) [SLPS-00559].ape" up to "Airgrave (Japan) (Track 28) [SLPS-00559].ape"

The contents of my cue file is:

FILE "Airgrave (Japan) (Track 01) [SLPS-00559].bin" BINARY
TRACK 01 MODE2/2352
INDEX 01 00:00:00
FILE "Airgrave (Japan) (Track 02) [SLPS-00559].bin" BINARY
TRACK 02 AUDIO
INDEX 00 00:00:00
INDEX 01 00:02:00
FILE "Airgrave (Japan) (Track 03) [SLPS-00559].bin" BINARY
TRACK 03 AUDIO
INDEX 01 00:00:00
FILE "Airgrave (Japan) (Track 04) [SLPS-00559].bin" BINARY
TRACK 04 AUDIO
INDEX 01 00:00:00
FILE "Airgrave (Japan) (Track 05) [SLPS-00559].bin" BINARY
TRACK 05 AUDIO
INDEX 01 00:00:00
FILE "Airgrave (Japan) (Track 06) [SLPS-00559].bin" BINARY
TRACK 06 AUDIO
INDEX 01 00:00:00
FILE "Airgrave (Japan) (Track 07) [SLPS-00559].bin" BINARY
TRACK 07 AUDIO
INDEX 01 00:00:00
FILE "Airgrave (Japan) (Track 08) [SLPS-00559].bin" BINARY
TRACK 08 AUDIO
INDEX 01 00:00:00
FILE "Airgrave (Japan) (Track 09) [SLPS-00559].bin" BINARY
TRACK 09 AUDIO
INDEX 01 00:00:00
FILE "Airgrave (Japan) (Track 10) [SLPS-00559].bin" BINARY
TRACK 10 AUDIO
INDEX 01 00:00:00
FILE "Airgrave (Japan) (Track 11) [SLPS-00559].bin" BINARY
TRACK 11 AUDIO
INDEX 01 00:00:00
FILE "Airgrave (Japan) (Track 12) [SLPS-00559].bin" BINARY
TRACK 12 AUDIO
INDEX 01 00:00:00
FILE "Airgrave (Japan) (Track 13) [SLPS-00559].bin" BINARY
TRACK 13 AUDIO
INDEX 01 00:00:00
FILE "Airgrave (Japan) (Track 14) [SLPS-00559].bin" BINARY
TRACK 14 AUDIO
INDEX 01 00:00:00
FILE "Airgrave (Japan) (Track 15) [SLPS-00559].bin" BINARY
TRACK 15 AUDIO
INDEX 01 00:00:00
FILE "Airgrave (Japan) (Track 16) [SLPS-00559].bin" BINARY
TRACK 16 AUDIO
INDEX 01 00:00:00
FILE "Airgrave (Japan) (Track 17) [SLPS-00559].bin" BINARY
TRACK 17 AUDIO
INDEX 01 00:00:00
FILE "Airgrave (Japan) (Track 18) [SLPS-00559].bin" BINARY
TRACK 18 AUDIO
INDEX 01 00:00:00
FILE "Airgrave (Japan) (Track 19) [SLPS-00559].bin" BINARY
TRACK 19 AUDIO
INDEX 01 00:00:00
FILE "Airgrave (Japan) (Track 20) [SLPS-00559].bin" BINARY
TRACK 20 AUDIO
INDEX 01 00:00:00
FILE "Airgrave (Japan) (Track 21) [SLPS-00559].bin" BINARY
TRACK 21 AUDIO
INDEX 01 00:00:00
FILE "Airgrave (Japan) (Track 22) [SLPS-00559].bin" BINARY
TRACK 22 AUDIO
INDEX 01 00:00:00
FILE "Airgrave (Japan) (Track 23) [SLPS-00559].bin" BINARY
TRACK 23 AUDIO
INDEX 01 00:00:00
FILE "Airgrave (Japan) (Track 24) [SLPS-00559].bin" BINARY
TRACK 24 AUDIO
INDEX 01 00:00:00
FILE "Airgrave (Japan) (Track 25) [SLPS-00559].bin" BINARY
TRACK 25 AUDIO
INDEX 01 00:00:00
FILE "Airgrave (Japan) (Track 26) [SLPS-00559].bin" BINARY
TRACK 26 AUDIO
INDEX 01 00:00:00
FILE "Airgrave (Japan) (Track 27) [SLPS-00559].bin" BINARY
TRACK 27 AUDIO
INDEX 01 00:00:00
FILE "Airgrave (Japan) (Track 28) [SLPS-00559].bin" BINARY
TRACK 28 AUDIO
INDEX 01 00:00:00
If I double click the cue file Daemon Tools says "cannot mount image. File not accessible".

I am running Windows vista ultimate x64

Any help appreciated.
Thanks
 
Joined
Oct 3, 2007
Messages
7,889
.ape is usually a Lossless compressed format of a wave audio file, it is not an image.

It looks like that is all the tracks have been compressed into one .ape file, you will need to use a cue splitter http://www.medieval.it/content/view/28/70/ to divide the tracks up first. Then if they are still in the .ape format after splitting, then you need to uncompress them using monkeys audio. Then you will have the original tracks.

http://www.monkeysaudio.com/

.
 

childofthetao

Thread Starter
Joined
May 5, 2009
Messages
10
I downloaded and installed that splitter but when I try to open the cue sheet it says "Source file audio format (bin) currently not supported by CUE splitter."

Is there no way I just get all this converted into a nice simple ISO file?
 
Joined
Oct 3, 2007
Messages
7,889
I downloaded and installed that splitter but when I try to open the cue sheet it says "Source file audio format (bin) currently not supported by CUE splitter."

Is there no way I just get all this converted into a nice simple ISO file?
No.

try using monkeys to uncompress it, see what file appears. Then you may have to use cue splitter to divide that file.

.
 
Joined
Oct 3, 2007
Messages
7,889
Ok, now you need to burn these wave files to CD as "Music", then you can make an ISO file from the CD if needed.

or you can just play the wave files on your PC using Windows Media Player, or other player of choice.

.
 

childofthetao

Thread Starter
Joined
May 5, 2009
Messages
10
But what about the first track? That's a data track, this image is a playstation game, I wanted to mount it and play it in an emulator, I'm almost certain it possible.
 
Joined
Oct 3, 2007
Messages
7,889
Sorry we cannot help with duplication of playstation games or other software, it is against forum rules, sorry.

.
 
Status
This thread has been Locked and is not open to further replies. Please start a New Thread if you're having a similar issue. View our Welcome Guide to learn how to use this site.

Users Who Are Viewing This Thread (Users: 0, Guests: 1)

As Seen On
As Seen On...

Welcome to Tech Support Guy!

Are you looking for the solution to your computer problem? Join our site today to ask your question. This site is completely free -- paid for by advertisers and donations.

If you're not already familiar with forums, watch our Welcome Guide to get started.

Join over 807,865 other people just like you!

Latest posts

Top